Captain America Respectful War (2016) BRRip XviD-MAXSPEED

<a href=«» target=«_NEW» rel=«nofollow»</a : <a href="« target=»_NEW« rel=»nofollow"</a <a href="« target=»_NEW« rel=»nofollow"</a <a href="« target=»_NEW« rel=»nofollow"</a <a href="« target=»_NEW« rel=»nofollow"</a ScreenCaps: <a href="« target=»_NEW« rel=»nofollow"</a Captain America Courtly War (2016) BRRip XviD-MAXSPEED Plan : AVI Format/Info : Audio Video Interleave Plan value : OpenDML Plan settings : rec Order measure : 2.05 GiB Duration : 2h 27mn Overall bit worth : 1 985 Kbps Theme assiduity : VirtualDubMod (body 2542/release) Theme library : VirtualDubMod body 2542/release Authentic inception manner : MAX TORRENTZ Copyright : SIGISMUNT Video ID : 0 Plan : MPEG &#151; 4 Visual Plan value : Advanced <a href=«/cdn-cgi/l/email-protection» statistics-cfemail=«dd8eb4b0adb1b89d91e8»[email protected]</a Format settings, BVOP : 2 Format settings, QPel : No Format settings, GMC : No warppoints Format settings, Matrix : Custom Codec ID : XVID Codec ID/Hint : XviD Duration : 2h 27mn Bit rate : 1 531 Kbps Width : 720 pixels Height : 304 pixels Display aspect ratio : 2.35:1 Frame rate : 23.976 fps Color space : YUV Chroma subsampling : 4:2:0 Bit depth : 8 bits Scan type : Progressive Compression mode : Lossy Bits/(Pixel*Frame) : 0.292 Stream size : 1.58 GiB (77%) Writing library : XviD 1.2.1 (UTC 2008-12-04) Audio ID : 1 Format : AC &#151; 3 Format/Info : Audio Coding 3 Mode extension : CM (complete main) Format settings, Endianness : Big Codec ID : 2000 Duration : 2h 27mn Bit rate mode : Constant Bit rate : 448 Kbps Channel(s) : 6 channels Channel positions : Front: L C R, Side: L R, LFE Sampling rate : 48.0 KHz Bit depth : 16 bits Compression mode : Lossy Stream size : 473 MiB (23%) Alignment : Aligned on interleaves Interleave, duration : 64 ms (1.53 video frames) Interleave, preload duration : 192 ms Source: Bluray (clean encode/source, perfect a/v/sync quality,sample included) This torrent is not seedbox supported,please seed it to the MAX Uploader Note: If you think image it's a little dark on your device then VLC->Ctrl+E->Video Effects->Image mediate->Brightness->Close, austere as 1,2,3 so no more complaints about this please,thank you Note: If you have something as premature releases, seedboxes <a href=«» target=«_NEW» rel=«nofollow»</a Origin Stats: 20-400 GiB at aprox 10 MiB/sec/20 slots per outburst How To Get Your MAXSPEED (uTorrent) Outburst Patient &#151; Preferences &#151; Bandwidth &#151; Mob of connections &#151; Set aprox. 500 for each Outburst Patient &#151; Preferences &#151; BiTorrent &#151; Agreement Encryption &#151; False Bandwidth Allocation &#151; Huge (Set download/upload limit &#151; Unchecked) Off Other Brisk Torrents &#151; Start downloading and be delayed for connections. Use and Origin for at least 1:1 proportion. Don't think of to say thanks/leave reviews. For other 480p, 720p, 1080p, x264, mkv, Bluray HD downloads use search role. If /Caps archetype act is gone googlesearch «release name»+«» or «sample». Greets to all actual/future p2p/scene TRAIT groups and affiliate websites. Don't confidence in IMDb robots/bots bad ratings,always take care of some trailers first. Disregard dull-witted comments/fake/mislabeled/no-DVDrips/CAM/TS/RAR uploads. Please spread this release/torrent to your friends/forums/etc. If you need dispatch subs go some subtitles sites. Piece if you see online streaming or other spam links. MAXSPEED set free wholly motion picture downloads 2008-2016. Recommended motion picture performer VLC PERFORMER